<?xml version="1.0" standalone="no"?>
<!DOCTYPE svg PUBLIC "-//W3C//DTD SVG 1.1//EN" "http://www.w3.org/Graphics/SVG/1.1/DTD/svg11.dtd">
<svg xmlns="http://www.w3.org/2000/svg">
<defs >
<font id="DMMono" horiz-adv-x="600" ><font-face
    font-family="DM Mono"
    units-per-em="1000"
    panose-1="2 11 5 9 4 2 1 4 1 3"
    ascent="992"
    descent="-310"
    alphabetic="0" />
<glyph unicode=" " glyph-name="space" />
<glyph unicode="!" glyph-name="exclam" d="M260 249L249 700H351L339 249H260ZM300 -2Q269 -2 247 19T225 71Q225 101 247 122T300 143Q332 143 353 122T375 71Q375 40 354 19T300 -2Z" />
<glyph unicode="&quot;" glyph-name="quotedbl" d="M402 391V700H494V391H402ZM363 391V700H455V391H363Z" />
<glyph unicode="#" glyph-name="numbersign" d="M89 0L120 197H17V271H131L156 429H57V503H168L198 700H278L247 503H401L431 700H511L480 503H583V429H469L444 271H544V197H432L402 0H322L353 197H199L169 0H89ZM211 271H364L389 429H236L211 271Z" />
<glyph unicode="$" glyph-name="dollar" d="M263 -87V-10Q164 2 106 61T46 213H134Q135 160 167 120T263 68V333Q158 361 114 410T69 532Q69 602 119 651T263 710V791H333V711Q424 702 477 650T532 519H445Q444 555 417 589T333 633V396Q338 394 343 393Q440 368
493 322T547 190Q547 135 521 92T446 21T333 -11V-87H263ZM156 533Q156 495 179 468T263 418V634Q216 627 186 601T156 533ZM460 184Q460 233 432 262T333 314V65Q395 72 427 105T460 184Z" />
<glyph unicode="%" glyph-name="percent" d="M166 402Q102 402 61 444T19 557Q19 628 60 670T166 712Q230 712 271 670T313 557Q313 486 272 444T166 402ZM166 462Q198 462 222 486T247 557Q247 603 223 627T166 652Q134 652 110 628T85 557Q85 511 109 487T166
462ZM70 65L22 112L530 635L578 588L70 65ZM434 -12Q370 -12 329 30T287 143Q287 214 328 256T434 298Q498 298 539 256T581 143Q581 72 540 30T434 -12ZM434 48Q466 48 490 72T515 143Q515 189 491 213T434 238Q402 238 378 214T353 143Q353 97 377 73T434 48Z"
/>
<glyph unicode="&amp;" glyph-name="ampersand" d="M250 -12Q186 -12 138 14T62 89T35 202Q35 265 67 316T161 403Q134 442 122 477T109 548Q109 619 157 665T289 712Q369 712 416 667T464 553H381Q381 593 353 615T288 638Q243 638 218 613T192 549Q192 518 208
486T257 413L416 215L483 362H572L471 147L589 0H490L428 75Q398 35 355 12T250 -12ZM119 204Q119 144 155 104T250 64Q292 64 322 83T376 139L207 344Q119 295 119 204Z" />
<glyph unicode="&apos;" glyph-name="quotesingle" d="M254 391V700H346V391H254Z" />
<glyph unicode="(" glyph-name="parenleft" d="M348 -185Q296 -127 252 -56T180 106T153 313Q153 429 180 519T251 681T348 811H437V802Q377 737 332 664T262 504T237 313Q237 208 262 122T332 -37T437 -176V-185H348Z" />
<glyph unicode=")" glyph-name="parenright" d="M163 -185V-176Q223 -111 268 -38T338 122T363 313Q363 418 338 504T268 663T163 802V811H252Q304 753 348 682T420 520T447 313Q447 197 420 107T349 -55T252 -185H163Z" />
<glyph unicode="*" glyph-name="asterisk" d="M256 101L277 311L104 194L64 266L252 350L64 435L104 506L277 389L256 599H344L324 389L496 506L536 435L348 350L536 266L496 194L324 311L344 101H256Z" />
<glyph unicode="+" glyph-name="plus" d="M262 125V312H75V388H262V575H338V388H525V312H338V125H262Z" />
<glyph unicode="," glyph-name="comma" d="M164 -122L252 147H363L244 -122H164Z" />
<glyph unicode="-" glyph-name="hyphen" d="M135 314V386H465V314H135Z" />
<glyph unicode="." glyph-name="period" d="M300 -2Q269 -2 247 19T225 71Q225 101 247 122T300 143Q331 143 353 122T375 71Q375 40 353 19T300 -2Z" />
<glyph unicode="/" glyph-name="slash" d="M83 -90L429 760H517L170 -90H83Z" />
<glyph unicode="0" glyph-name="zero" d="M300 -12Q221 -12 161 32T67 157T33 350Q33 462 66 543T160 668T300 712Q380 712 440 668T533 543T567 350Q567 238 534 157T440 32T300 -12ZM119 350Q119 282 133 228T174 136L368 617Q337 634 300 634Q247 634 206 600T142
502T119 350ZM300 65Q353 65 394 99T458 198T481 350Q481 418 467 472T426 564L231 82Q263 65 300 65Z" />
<glyph unicode="1" glyph-name="one" d="M70 0V76H251V601L80 568V632L279 700H335V76H526V0H70Z" />
<glyph unicode="2" glyph-name="two" d="M74 0V66Q182 152 262 224T387 363T431 500Q431 563 396 599T300 636Q254 636 222 616T174 563T158 492H75Q76 561 105 610T185 686T300 712Q403 712 460 655T517 502Q517 439 490 382T418 271T317 169T204 75H536V0H74Z" />
<glyph unicode="3" glyph-name="three" d="M309 -12Q240 -12 186 13T98 88T62 208H148Q150 148 192 107T309 65Q382 65 422 102T462 205Q462 250 439 279T378 323T292 338H231V414H284Q352 414 392 443T433 528Q433 575 401 605T308 635Q250 635 214 603T173 518H89Q91
575 119 618T195 687T308 712Q377 712 423 688T494 624T518 534Q518 482 486 443T410 387V381Q469 363 508 320T547 205Q547 144 519 95T437 17T309 -12Z" />
<glyph unicode="4" glyph-name="four" d="M386 0V162H51V227L370 700H470V238H570V162H470V0H386ZM145 238H390V602L145 238Z" />
<glyph unicode="5" glyph-name="five" d="M300 -12Q228 -12 176 15T94 88T58 193H144Q153 136 195 101T301 65Q376 65 419 113T462 236Q462 314 418 358T304 403Q248 403 209 378T145 313H65L125 700H499V623H191L154 415H159Q182 440 221 459T313 478Q382 478
433 449T514 365T543 237Q543 169 515 113T432 22T300 -12Z" />
<glyph unicode="6" glyph-name="six" d="M314 -12Q222 -12 165 32T80 152T52 323Q52 438 84 525T176 662T322 712Q389 712 436 687T511 618T544 520H465Q455 573 417 604T322 636Q272 636 231 605T163 508T132 341H137Q160 384 208 416T324 448Q387 448 437 419T516
339T546 223Q546 159 518 106T437 20T314 -12ZM308 64Q377 64 419 108T461 218Q461 285 419 328T308 372Q262 372 228 352T174 297T154 218Q154 174 173 139T227 84T308 64Z" />
<glyph unicode="7" glyph-name="seven" d="M172 0L445 624H63V700H532V633L261 0H172Z" />
<glyph unicode="8" glyph-name="eight" d="M300 -12Q230 -12 178 14T95 87T65 192Q65 258 100 304T181 368V373Q137 394 111 433T84 526Q84 577 110 619T186 687T300 712Q364 712 412 687T488 620T516 526Q516 473 490 434T419 373V368Q465 350 500 304T535 192Q535
133 505 87T423 15T300 -12ZM300 404Q362 404 397 436T433 521Q433 572 398 604T300 637Q238 637 203 605T167 521Q167 469 202 437T300 404ZM300 64Q367 64 408 98T450 199Q450 264 409 298T300 333Q233 333 192 299T150 199Q150 133 191 99T300 64Z" />
<glyph unicode="9" glyph-name="nine" d="M288 -12Q224 -12 175 13T96 82T61 180H142Q151 127 189 96T288 64Q367 64 417 135T474 359H468Q441 312 399 282T281 252Q218 252 168 281T89 361T59 477Q59 541 87 594T168 680T291 712Q423 712 488 622T553 377Q553
262 522 175T432 38T288 -12ZM297 328Q367 328 409 372T451 482Q451 548 409 592T297 636Q227 636 186 592T144 482Q144 415 185 372T297 328Z" />
<glyph unicode=":" glyph-name="colon" d="M300 -2Q269 -2 247 19T225 71Q225 101 247 122T300 143Q331 143 353 122T375 71Q375 40 353 19T300 -2ZM300 393Q269 393 247 414T225 466Q225 496 247 517T300 538Q331 538 353 517T375 466Q375 435 353 414T300 393Z" />
<glyph unicode=";" glyph-name="semicolon" d="M300 393Q269 393 247 414T225 466Q225 496 247 517T300 538Q331 538 353 517T375 466Q375 435 353 414T300 393ZM164 -122L252 147H363L244 -122H164Z" />
<glyph unicode="&lt;" glyph-name="less" d="M372 80L106 350L372 618H486L222 353V347L486 80H372Z" />
<glyph unicode="=" glyph-name="equal" d="M75 435V511H525V435H75ZM75 189V265H525V189H75Z" />
<glyph unicode="&gt;" glyph-name="greater" d="M115 80L379 347V353L115 618H228L494 350L228 80H115Z" />
<glyph unicode="?" glyph-name="question" d="M220 211L215 359H246Q330 359 378 393T426 506Q426 567 390 601T290 636Q229 636 192 603T151 512H71Q73 571 100 616T176 686T290 712Q389 712 448 657T508 507Q508 435 478 391T398 325T295 299L292 211H220ZM254
-2Q223 -2 201 19T179 71Q179 101 201 122T254 143Q286 143 307 122T329 71Q329 40 308 19T254 -2Z" />
<glyph unicode="@" glyph-name="at" d="M373 -94Q264 -94 192 -43T83 99T47 303Q47 407 70 482T135 605T227 677T333 700Q436 700 496 648T556 499V107H496L488 164H484Q469 136 442 117T372 98Q297 98 248 152T199 304Q199 402 247 455T372 508Q414 508 441 493T484
453V499Q484 561 443 596T333 632Q280 632 232 600T154 496T123 303Q123 215 150 140T233 20T373 -26H513V-94H373ZM378 161Q424 161 454 195T484 303Q484 376 454 410T378 445Q332 445 302 411T272 303Q272 230 302 196T378 161Z" />
<glyph unicode="A" glyph-name="A" d="M33 0L252 700H349L567 0H475L424 174H176L125 0H33ZM298 582L197 244H403L302 582H298Z" />
<glyph unicode="B" glyph-name="B" d="M66 0V700H299Q408 700 463 650T518 522Q518 461 485 422T411 366V359Q460 343 497 301T534 193Q534 139 508 96T431 26T307 0H66ZM150 398H293Q360 398 395 427T431 513Q431 566 396 595T290 624H150V398ZM150 77H298Q370
77 409 109T448 201Q448 260 407 292T296 325H150V77Z" />
<glyph unicode="C" glyph-name="C" d="M305 -12Q220 -12 159 33T65 159T32 350Q32 459 64 540T158 667T305 712Q413 712 479 653T556 494H463Q453 553 413 593T305 633Q218 633 168 558T118 350Q118 217 168 142T305 67Q376 67 414 105T463 203H556Q540 103 477
46T305 -12Z" />
<glyph unicode="D" glyph-name="D" d="M66 0V700H213Q385 700 467 606T550 350Q550 188 468 94T213 0H66ZM150 77H211Q303 77 358 111T439 206T464 350Q464 433 439 494T359 589T211 623H150V77Z" />
<glyph unicode="E" glyph-name="E" d="M86 0V700H523V624H170V391H493V315H170V76H523V0H86Z" />
<glyph unicode="F" glyph-name="F" d="M91 0V700H528V622H175V378H477V303H175V0H91Z" />
<glyph unicode="G" glyph-name="G" d="M293 -12Q219 -12 161 31T71 156T38 350Q38 462 71 543T164 668T308 712Q407 712 469 654T544 498H451Q441 558 405 595T308 633Q222 633 173 558T124 350Q124 215 173 141T300 67Q356 67 392 100T446 186T467 295H311V367H553V0H476L469
106H465Q444 52 404 20T293 -12Z" />
<glyph unicode="H" glyph-name="H" d="M47 0V700H131V398H470V700H554V0H470V322H131V0H47Z" />
<glyph unicode="I" glyph-name="I" d="M99 0V73H258V627H99V700H501V627H342V73H501V0H99Z" />
<glyph unicode="J" glyph-name="J" d="M308 -12Q205 -12 150 46T95 208H180Q181 149 211 108T307 66Q373 66 401 106T430 206V700H514V206Q514 101 460 45T308 -12Z" />
<glyph unicode="K" glyph-name="K" d="M82 0V700H166V374L440 700H547L252 352V348L551 0H442L166 321V0H82Z" />
<glyph unicode="L" glyph-name="L" d="M87 0V700H171V76H526V0H87Z" />
<glyph unicode="M" glyph-name="M" d="M50 0V700H140L300 367L460 700H550V0H468V538L332 255H268L132 537V0H50Z" />
<glyph unicode="N" glyph-name="N" d="M57 0V700H143L461 147V700H544V0H457L139 553V0H57Z" />
<glyph unicode="O" glyph-name="O" d="M300 -12Q215 -12 154 33T61 159T28 350Q28 459 60 540T154 667T300 712Q385 712 446 667T539 541T572 350Q572 241 540 160T446 33T300 -12ZM300 67Q383 67 434 141T486 350Q486 485 435 559T300 633Q216 633 165 559T114
350Q114 215 165 141T300 67Z" />
<glyph unicode="P" glyph-name="P" d="M74 0V700H307Q387 700 438 671T513 594T537 488Q537 430 513 382T438 305T307 276H158V0H74ZM158 353H305Q379 353 415 390T451 488Q451 548 415 586T305 624H158V353Z" />
<glyph unicode="Q" glyph-name="Q" d="M300 -12Q215 -12 154 33T61 159T28 350Q28 459 60 540T154 667T300 712Q385 712 446 667T539 541T572 350Q572 225 529 137T409 11L559 -149H449L321 -11Q310 -12 300 -12ZM300 67Q383 67 434 141T486 350Q486 485 435 559T300
633Q216 633 165 559T114 350Q114 215 165 141T300 67Z" />
<glyph unicode="R" glyph-name="R" d="M82 0V700H297Q378 700 430 673T509 600T535 494Q535 425 500 373T391 299L543 0H443L302 287H297H166V0H82ZM166 364H294Q374 364 411 400T449 494Q449 554 413 589T293 624H166V364Z" />
<glyph unicode="S" glyph-name="S" d="M307 -12Q233 -12 179 16T95 94T64 211H152Q153 151 192 108T307 64Q376 64 413 97T451 178Q451 217 433 243T375 290T266 333Q170 362 126 412T82 536Q82 586 108 626T183 689T302 712Q368 712 417 688T494 619T522 518H434Q434
546 419 573T374 618T298 636Q243 636 206 610T169 537Q169 502 185 478T240 435T343 393Q404 373 447 347T514 281T538 184Q538 127 509 83T428 14T307 -12Z" />
<glyph unicode="T" glyph-name="T" d="M258 0V624H70V700H530V624H342V0H258Z" />
<glyph unicode="U" glyph-name="U" d="M299 -12Q229 -12 175 17T89 105T57 255V700H141V252Q141 162 185 113T301 64Q373 64 416 113T459 252V700H543V255Q543 165 511 106T424 17T299 -12Z" />
<glyph unicode="V" glyph-name="V" d="M250 0L27 700H117L300 109L483 700H574L350 0H250Z" />
<glyph unicode="W" glyph-name="W" d="M109 0L2 700H87L158 160L257 700H343L442 160L513 700H598L491 0H395L300 538L205 0H109Z" />
<glyph unicode="X" glyph-name="X" d="M41 0L252 350L41 700H137L302 426L463 700H559L347 351L559 0H463L297 275L137 0H41Z" />
<glyph unicode="Y" glyph-name="Y" d="M258 0V275L31 700H126L300 360L474 700H569L342 275V0H258Z" />
<glyph unicode="Z" glyph-name="Z" d="M69 0V69L431 624H74V700H528V631L165 76H532V0H69Z" />
<glyph unicode="[" glyph-name="bracketleft" d="M266 -185Q220 -185 196 -160T171 -89V715Q171 761 195 786T266 811H425V737H274Q250 737 250 712V-85Q250 -110 274 -110H425V-185H266Z" />
<glyph unicode="\" glyph-name="backslash" d="M430 -90L83 760H171L517 -90H430Z" />
<glyph unicode="]" glyph-name="bracketright" d="M175 -185V-110H326Q350 -110 350 -85V712Q350 737 326 737H175V811H334Q380 811 404 786T429 715V-89Q429 -135 405 -160T334 -185H175Z" />
<glyph unicode="^" glyph-name="asciicircum" d="M54 374L261 700H339L546 374H458L302 622H298L142 374H54Z" />
<glyph unicode="_" glyph-name="underscore" d="M75 -77V0H525V-77H75Z" />
<glyph unicode="`" glyph-name="grave" d="M405 536L195 641V727L405 615V536Z" />
<glyph unicode="a" glyph-name="a" d="M258 -12Q199 -12 160 9T102 64T83 140Q83 216 138 255T287 295H423V305Q423 435 304 435Q256 435 224 414T182 348H96Q101 398 129 434T203 489T304 508Q410 508 458 453T507 305V0H435L428 77H421Q399 41 363 15T258 -12ZM273
62Q321 62 354 85T405 146T423 229H294Q226 229 199 206T171 145Q171 106 197 84T273 62Z" />
<glyph unicode="b" glyph-name="b" d="M317 -12Q260 -12 221 11T162 76H156L147 0H78V720H162V425Q181 458 221 483T317 508Q381 508 430 478T507 390T535 249Q535 165 507 107T430 18T317 -12ZM306 68Q369 68 409 112T450 248Q450 339 410 383T306 428Q243 428
202 384T161 248Q161 157 202 113T306 68Z" />
<glyph unicode="c" glyph-name="c" d="M308 -12Q241 -12 189 19T105 108T74 248Q74 329 105 387T189 477T308 508Q400 508 455 462T525 339H439Q427 380 393 404T307 429Q269 429 235 409T180 349T159 248Q159 187 180 147T235 86T307 66Q362 66 394 91T439 157H525Q506
78 451 33T308 -12Z" />
<glyph unicode="d" glyph-name="d" d="M283 -12Q220 -12 171 18T93 106T65 249Q65 332 93 390T170 478T283 508Q342 508 380 485T438 425V720H522V0H453L444 77H438Q418 36 379 12T283 -12ZM294 68Q357 68 398 112T439 248Q439 339 398 383T294 428Q231 428 191
384T150 248Q150 157 190 113T294 68Z" />
<glyph unicode="e" glyph-name="e" d="M305 -12Q235 -12 182 20T97 111T66 248Q66 326 96 384T181 475T307 508Q379 508 430 476T508 390T535 276Q535 265 535 254T534 229H149Q152 174 174 138T231 83T305 65Q360 65 391 88T438 152H521Q504 83 450 36T305 -12ZM305
433Q247 433 204 398T150 300H452Q448 362 408 397T305 433Z" />
<glyph unicode="f" glyph-name="f" d="M92 -220V-143H153Q191 -143 207 -128T223 -75V424H100V496H223V575Q223 652 260 686T372 720H491V644H377Q340 644 324 629T307 575V496H491V424H307V-75Q307 -152 270 -186T159 -220H92Z" />
<glyph unicode="g" glyph-name="g" d="M291 146Q239 146 198 165L164 124Q153 109 158 95T187 80H318Q407 80 462 46T517 -64Q517 -109 494 -147T422 -208T292 -232Q188 -232 125 -193T62 -74Q62 -45 76 -21T113 23Q84 41 78 77T99 148L144 204Q96 254 96 327Q96
375 119 416T185 483T291 508Q331 508 365 496H551V433L458 430V423Q484 380 484 327Q484 279 462 238T396 171T291 146ZM291 218Q340 218 371 247T403 327Q403 378 372 406T291 435Q241 435 209 407T177 327Q177 276 209 247T291 218ZM145 -71Q145 -115 186 -137T292
-159Q355 -159 394 -134T434 -67Q434 -34 406 -12T303 11H190Q145 -22 145 -71Z" />
<glyph unicode="h" glyph-name="h" d="M83 0V720H167V421Q187 459 233 483T334 508Q425 508 472 453T520 299V0H436V288Q436 355 404 392T313 429Q273 429 240 411T187 358T167 272V0H83Z" />
<glyph unicode="i" glyph-name="i" d="M294 584Q264 584 244 604T224 652Q224 681 244 700T294 720Q323 720 343 701T364 652Q364 624 344 604T294 584ZM100 0V72H258V399Q258 424 233 424H117V496H253Q342 496 342 407V72H500V0H100Z" />
<glyph unicode="j" glyph-name="j" d="M320 584Q291 584 271 604T250 652Q250 681 270 700T320 720Q350 720 370 701T390 652Q390 624 370 604T320 584ZM61 -220V-148H259Q284 -148 284 -122V399Q284 424 259 424H139V496H279Q368 496 368 407V-131Q368 -220 279
-220H61Z" />
<glyph unicode="k" glyph-name="k" d="M111 0V720H195V286L402 496H509L288 275V269L536 0H432L195 258V0H111Z" />
<glyph unicode="l" glyph-name="l" d="M75 0V72H244V623Q244 648 219 648H93V720H239Q282 720 305 697T328 631V72H497V0H75Z" />
<glyph unicode="m" glyph-name="m" d="M37 0V496H106L115 438H120Q133 468 159 488T224 508Q262 508 288 490T327 438H331Q344 468 373 488T443 508Q500 508 528 470T557 367V0H475V354Q475 390 461 411T414 432Q381 432 360 407T339 336V0H256V354Q256 390 242
411T196 432Q163 432 142 407T120 336V0H37Z" />
<glyph unicode="n" glyph-name="n" d="M88 0V496H158L167 421H172Q192 457 235 482T334 508Q425 508 470 454T516 298V0H432V288Q432 354 403 391T313 429Q254 429 213 389T172 272V0H88Z" />
<glyph unicode="o" glyph-name="o" d="M300 -12Q230 -12 176 20T91 110T60 248Q60 327 91 385T176 476T300 508Q370 508 424 476T509 386T540 248Q540 169 509 111T424 20T300 -12ZM300 68Q343 68 378 87T433 146T454 248Q454 310 434 350T378 409T300 428Q258
428 223 409T167 350T146 248Q146 155 191 112T300 68Z" />
<glyph unicode="p" glyph-name="p" d="M78 -220V496H146L156 414H162Q181 454 223 481T322 508Q382 508 430 478T507 390T535 247Q535 164 507 106T429 18T315 -12Q258 -12 219 12T162 70V-220H78ZM305 68Q368 68 409 112T450 248Q450 339 409 383T305 428Q242
428 201 384T160 248Q160 157 201 113T305 68Z" />
<glyph unicode="q" glyph-name="q" d="M441 -220V74Q422 38 386 13T287 -12Q224 -12 175 18T97 106T68 247Q68 331 96 389T173 478T282 508Q341 508 381 483T441 420H447L457 496H525V-220H441ZM298 68Q361 68 402 112T443 248Q443 339 402 383T298 428Q235 428
194 384T153 248Q153 157 194 113T298 68Z" />
<glyph unicode="r" glyph-name="r" d="M84 0V72H211V399Q211 424 187 424H97V496H218Q251 496 271 478T291 425V404H295Q307 454 340 481T434 508H525V419H422Q361 419 328 379T295 275V72H451V0H84Z" />
<glyph unicode="s" glyph-name="s" d="M305 -12Q210 -12 152 32T86 155H173Q179 114 213 88T307 62Q363 62 390 86T418 141Q418 183 385 198T286 222Q207 231 155 265T103 367Q103 428 154 468T293 508Q380 508 430 469T487 356H404Q401 392 370 413T291 435Q242
435 215 417T188 368Q188 338 218 319T315 293Q367 287 410 273T478 229T504 145Q505 100 480 65T409 9T305 -12Z" />
<glyph unicode="t" glyph-name="t" d="M352 0Q284 0 245 33T206 152V424H80V496H155Q206 496 214 546L228 623H290V496H488V424H290V152Q290 110 309 93T377 76H488V0H352Z" />
<glyph unicode="u" glyph-name="u" d="M265 -12Q175 -12 129 42T83 198V496H167V208Q167 142 196 105T286 67Q346 67 387 107T428 224V496H512V0H442L433 75H428Q408 39 365 14T265 -12Z" />
<glyph unicode="v" glyph-name="v" d="M251 0L33 496H129L300 92L472 496H567L348 0H251Z" />
<glyph unicode="w" glyph-name="w" d="M124 0L14 496H97L168 125L253 496H347L432 125L503 496H587L476 0H390L300 385L210 0H124Z" />
<glyph unicode="x" glyph-name="x" d="M73 0L242 248L69 496H162L300 296L438 496H531L358 248L527 0H434L300 201L165 0H73Z" />
<glyph unicode="y" glyph-name="y" d="M149 -220L271 48H242L46 496H137L300 112L472 496H560L237 -220H149Z" />
<glyph unicode="z" glyph-name="z" d="M102 0V77L394 418H107V496H493V419L200 78H498V0H102Z" />
<glyph unicode="{" glyph-name="braceleft" d="M392 -185Q320 -185 278 -150T235 -36Q235 2 240 32T251 98T257 182Q257 225 235 250T161 276H114V350H161Q212 350 234 375T257 444Q257 494 252 528T241 593T235 662Q235 740 277 775T392 811H488V737H401Q360
737 338 718T316 653Q316 613 321 584T332 524T338 450Q338 397 315 363T255 315V311Q292 298 315 264T338 176Q338 133 333 103T322 43T316 -27Q316 -72 338 -91T401 -111H488V-185H392Z" />
<glyph unicode="|" glyph-name="bar" d="M258 -270V720H342V-270H258Z" />
<glyph unicode="}" glyph-name="braceright" d="M112 -185V-111H199Q240 -111 262 -92T284 -27Q284 13 279 42T268 102T262 176Q262 229 285 263T345 311V315Q308 328 285 362T262 450Q262 493 267 523T278 583T284 653Q284 698 262 717T199 737H112V811H208Q280
811 322 776T365 662Q365 624 360 594T349 529T343 444Q343 401 365 376T439 350H486V276H439Q388 276 366 251T343 182Q343 133 348 98T359 33T365 -36Q365 -114 323 -149T208 -185H112Z" />
<glyph unicode="~" glyph-name="asciitilde" d="M387 250Q358 250 334 260T290 283T250 305T210 315Q185 315 169 298T150 250H79Q85 321 120 355T213 390Q242 390 266 381T310 358T350 335T390 325Q415 325 431 343T450 390H521Q515 319 480 285T387 250Z" />
<glyph unicode="&#xa0;" glyph-name="uni00A0" />
<glyph unicode="&#xa1;" glyph-name="exclamdown" d="M300 362Q269 362 247 383T225 435Q225 465 247 486T300 508Q331 508 353 487T375 435Q375 405 353 384T300 362ZM249 -220L261 257H340L351 -220H249Z" />
<glyph unicode="&#xa2;" glyph-name="cent" d="M275 0V93Q218 101 174 133T104 221T78 350Q78 424 103 478T174 566T275 607V700H344V608Q421 600 468 556T529 441H443Q433 475 408 498T344 528V171Q384 178 408 201T443 259H529Q512 188 465 144T344 92V0H275ZM163
350Q163 273 196 229T275 173V526Q229 515 196 471T163 350Z" />
<glyph unicode="&#xa3;" glyph-name="sterling" d="M83 0V54Q120 95 143 136T166 233Q166 250 164 266T157 298H44V365H133Q121 396 111 430T100 507Q100 569 128 615T205 686T319 712Q390 712 437 685T509 612T536 507H454Q451 563 417 600T319 638Q284 638 253
624T203 580T183 503Q183 467 193 433T216 365H408V298H238Q242 284 244 269T247 239Q247 190 231 153T185 79V75H537V0H83Z" />
<glyph unicode="&#xa4;" glyph-name="currency" d="M139 92L95 136L156 197Q129 240 129 297Q129 353 156 396L95 458L139 502L200 442Q243 472 300 472Q356 472 400 441L461 502L505 458L443 396Q471 352 471 297Q471 242 443 199L505 136L461 92L399 153Q356
122 300 122Q242 122 199 152L139 92ZM300 186Q325 186 349 198T389 235T405 297Q405 334 389 358T349 395T300 408Q260 408 228 380T195 297Q195 242 227 214T300 186Z" />
<glyph unicode="&#xa5;" glyph-name="yen" d="M77 160V228H258V275L238 312H77V381H201L31 700H126L300 360L474 700H569L399 381H523V312H362L342 275V228H523V160H342V0H258V160H77Z" />
<glyph unicode="&#xa6;" glyph-name="brokenbar" d="M258 308V720H342V308H258ZM258 -270V142H342V-270H258Z" />
<glyph unicode="&#xa7;" glyph-name="section" d="M297 -232Q231 -232 182 -208T105 -139T77 -38H164Q164 -66 179 -93T225 -138T300 -156Q355 -156 392 -130T430 -56Q430 -22 414 2T359 45T256 87Q195 107 152 132T85 195T61 288Q61 327 77 360T121 418Q82 466
82 536Q82 586 108 626T183 689T302 712Q368 712 417 688T494 619T522 518H434Q434 546 419 573T374 618T298 636Q243 636 206 610T169 537Q169 502 185 478T240 435T343 393Q404 373 447 348T514 285T538 193Q538 153 522 120T477 62Q516 15 516 -56Q516 -106
491 -146T416 -209T297 -232ZM333 147Q382 132 418 111Q451 142 451 183Q451 221 433 246T375 292T266 333Q216 348 181 369Q148 337 148 293Q148 257 166 233T224 188T333 147Z" />
<glyph unicode="&#xa8;" glyph-name="dieresis" d="M392 565Q368 565 352 582T335 622Q335 646 351 663T392 680Q416 680 432 663T448 622Q448 599 432 582T392 565ZM209 565Q185 565 169 582T152 622Q152 646 168 663T209 680Q233 680 249 663T266 622Q266 599
250 582T209 565Z" />
<glyph unicode="&#xa9;" glyph-name="copyright" d="M300 60Q218 60 152 98T48 202T10 350Q10 433 48 498T152 602T300 640Q383 640 448 602T552 499T590 350Q590 268 552 202T449 98T300 60ZM300 105Q370 105 424 137T511 224T543 350Q543 421 511 476T425 563T300
595Q231 595 176 563T89 476T57 350Q57 280 89 225T176 137T300 105ZM299 170Q232 170 186 217T140 350Q140 408 162 448T220 509T299 530Q362 530 398 499T445 416H395Q384 448 361 466T299 484Q256 484 223 452T190 350Q190 281 223 248T299 215Q340 215 364
234T397 284H445Q433 230 396 200T299 170Z" />
<glyph unicode="&#xaa;" glyph-name="ordfeminine" d="M264 290Q193 290 159 326T124 412Q124 471 167 503T287 536H393V544Q393 641 303 641Q267 641 243 625T210 575H133Q141 638 188 672T303 706Q390 706 430 662T470 544V300H404L398 358H392Q375 330 346
310T264 290ZM279 355Q315 355 341 372T380 418T393 479H294Q246 479 225 462T204 416Q204 388 224 372T279 355Z" />
<glyph unicode="&#xab;" glyph-name="guillemotleft" d="M401 98L284 295L401 492H489L377 297V293L489 98H401ZM477 98L360 295L477 492H565L453 297V293L565 98H477Z" />
<glyph unicode="&#xac;" glyph-name="logicalnot" d="M449 125V312H75V388H525V125H449Z" />
<glyph unicode="&#xad;" glyph-name="uni00AD" d="M135 314V386H465V314H135Z" />
<glyph unicode="&#xae;" glyph-name="registered" d="M300 60Q218 60 152 98T48 202T10 350Q10 433 48 498T152 602T300 640Q383 640 448 602T552 499T590 350Q590 268 552 202T449 98T300 60ZM300 105Q370 105 424 137T511 224T543 350Q543 421 511 476T425 563T300
595Q231 595 176 563T89 476T57 350Q57 280 89 225T176 137T300 105ZM195 175V525H302Q362 525 391 497T420 424Q420 390 403 365T351 329L430 175H374L301 322H245V175H195ZM245 368H301Q338 368 355 384T372 424Q372 449 356 464T301 479H245V368Z" />
<glyph unicode="&#xaf;" glyph-name="overscore" d="M137 596V662H463V596H137Z" />
<glyph unicode="&#xb0;" glyph-name="degree" d="M300 419Q260 419 227 436T174 487T154 565Q154 609 173 642T226 693T300 712Q340 712 373 694T427 642T447 565Q447 520 427 487T374 437T300 419ZM300 480Q333 480 357 503T382 566Q382 605 358 628T300 651Q267
651 243 628T218 566Q218 526 242 503T300 480Z" />
<glyph unicode="&#xb1;" glyph-name="plusminus" d="M262 178V312H75V388H262V522H338V388H525V312H338V178H262ZM75 0V76H525V0H75Z" />
<glyph unicode="&#xb2;" glyph-name="uni00B2" d="M162 280V334Q223 382 269 423T341 502T367 578Q367 609 350 627T303 646Q267 646 248 624T229 571H163Q164 638 204 672T303 707Q367 707 402 673T437 580Q437 532 411 489T344 408T262 338H448V280H162Z" />
<glyph unicode="&#xb3;" glyph-name="uni00B3" d="M302 273Q240 273 197 308T152 409H219Q221 377 243 356T303 335Q340 335 361 353T383 404Q383 440 357 456T292 473H255V532H287Q365 532 365 590Q365 615 348 630T302 645Q271 645 252 628T231 585H164Q167
641 205 674T302 707Q367 707 400 676T433 597Q433 566 415 544T371 512V508Q406 498 428 472T450 402Q450 349 411 311T302 273Z" />
<glyph unicode="&#xb4;" glyph-name="acute" d="M195 536V615L405 727V641L195 536Z" />
<glyph unicode="&#xb5;" glyph-name="uni00B5" d="M83 -220V496H167V208Q167 142 196 105T286 67Q346 67 387 107T428 224V496H512V0H442L433 75H428Q408 39 367 14T274 -12Q202 -12 167 31V-220H83Z" />
<glyph unicode="&#xb6;" glyph-name="paragraph" d="M304 -100V299H296Q215 299 163 325T86 397T60 499Q60 557 85 602T163 673T296 700H521V-100H452V638H372V-100H304Z" />
<glyph unicode="&#xb7;" glyph-name="middot" d="M300 278Q269 278 247 299T225 351Q225 381 247 402T300 423Q331 423 353 402T375 351Q375 320 353 299T300 278Z" />
<glyph unicode="&#xb8;" glyph-name="cedilla" d="M236 -259V-206H336Q364 -206 380 -194T396 -158Q396 -136 380 -125T336 -114H279V7H336V-63H345Q398 -63 431 -86T464 -159Q464 -207 430 -233T344 -259H236Z" />
<glyph unicode="&#xb9;" glyph-name="uni00B9" d="M158 280V341H261V620L163 603V658L288 700H329V341H439V280H158Z" />
<glyph unicode="&#xba;" glyph-name="ordmasculine" d="M300 290Q243 290 199 316T130 388T105 498Q105 561 130 608T200 680T300 706Q357 706 400 681T469 608T495 498Q495 435 470 389T400 316T300 290ZM300 362Q348 362 383 395T418 498Q418 568 383 601T300
634Q252 634 217 601T182 498Q182 429 217 396T300 362Z" />
<glyph unicode="&#xbb;" glyph-name="guillemotright" d="M291 98L403 293V297L291 492H379L496 295L379 98H291ZM367 98L479 293V297L367 492H455L572 295L455 98H367Z" />
<glyph unicode="&#xbc;" glyph-name="onequarter" d="M200 417V475H268V622L203 614V670L298 699H335V475H411V417H200ZM106 324V380H494V324H106ZM305 -1V50H166V102L293 281H372V107H402V50H372V-1H305ZM238 107H310V211L238 107Z" />
<glyph unicode="&#xbd;" glyph-name="onehalf" d="M200 417V475H268V622L203 614V670L298 699H335V475H411V417H200ZM106 324V380H494V324H106ZM194 0V53Q254 94 293 128T333 195Q333 209 325 218T300 227Q279 227 269 216T259 189H195Q199 241 229 263T300 286Q348
286 374 263T401 200Q401 169 383 142T338 93T287 54H409V0H194Z" />
<glyph unicode="&#xbe;" glyph-name="threequarters" d="M299 413Q253 413 222 438T187 508H251Q253 490 267 481T300 472Q321 472 333 480T346 503Q346 521 331 529T293 537H264V590H289Q307 590 320 595T334 618Q334 645 298 645Q280 645 269 636T258 615H194Q196
656 224 680T298 704Q349 704 373 682T398 626Q398 606 386 592T356 572V570Q378 564 394 547T410 499Q410 464 382 439T299 413ZM106 324V380H494V324H106ZM305 0V50H166V102L293 281H372V107H402V50H372V0H305ZM238 107H310V211L238 107Z" />
<glyph unicode="&#xbf;" glyph-name="questiondown" d="M325 362Q294 362 272 383T250 435Q250 465 272 486T325 508Q356 508 378 487T400 435Q400 405 378 384T325 362ZM289 -232Q190 -232 131 -177T71 -27Q71 45 101 89T181 155T284 181L287 294H359L364 121H333Q249
121 201 87T153 -26Q153 -87 189 -121T289 -156Q350 -156 387 -122T428 -32H508Q506 -91 479 -136T403 -206T289 -232Z" />
<glyph unicode="&#xc0;" glyph-name="Agrave" d="M33 0L252 700H349L567 0H475L424 174H176L125 0H33ZM298 582L197 244H403L302 582H298ZM355 740L145 845V931L355 819V740Z" />
<glyph unicode="&#xc1;" glyph-name="Aacute" d="M33 0L252 700H349L567 0H475L424 174H176L125 0H33ZM298 582L197 244H403L302 582H298ZM245 740V819L455 931V845L245 740Z" />
<glyph unicode="&#xc2;" glyph-name="Acircumflex" d="M33 0L252 700H349L567 0H475L424 174H176L125 0H33ZM298 582L197 244H403L302 582H298ZM163 755V829L300 909L437 829V755L302 835H298L163 755Z" />
<glyph unicode="&#xc3;" glyph-name="Atilde" d="M33 0L252 700H349L567 0H475L424 174H176L125 0H33ZM298 582L197 244H403L302 582H298ZM361 783Q333 783 314 793T278 814T242 825Q206 825 200 785H144Q147 833 172 859T238 885Q266 885 285 875T320 854T357
843Q395 843 401 883H456Q455 836 429 810T361 783Z" />
<glyph unicode="&#xc4;" glyph-name="Adieresis" d="M33 0L252 700H349L567 0H475L424 174H176L125 0H33ZM298 582L197 244H403L302 582H298ZM392 769Q368 769 352 786T335 826Q335 850 351 867T392 884Q416 884 432 867T448 826Q448 803 432 786T392 769ZM209
769Q185 769 169 786T152 826Q152 850 168 867T209 884Q233 884 249 867T266 826Q266 803 250 786T209 769Z" />
<glyph unicode="&#xc5;" glyph-name="Aring" d="M33 0L252 700H349L567 0H475L424 174H176L125 0H33ZM298 582L197 244H403L302 582H298ZM300 761Q257 761 226 788T195 864Q195 911 226 939T300 967Q343 967 374 939T405 864Q405 816 374 789T300 761ZM300 805Q324
805 340 820T357 864Q357 891 341 906T300 922Q276 922 260 907T243 864Q243 836 259 821T300 805Z" />
<glyph unicode="&#xc6;" glyph-name="AE" d="M2 0L233 700H590V624H386V391H560V315H386V76H590V0H302V174H149L94 0H2ZM289 624L171 244H302V624H289Z" />
<glyph unicode="&#xc7;" glyph-name="Ccedilla" d="M305 -12Q220 -12 159 33T65 159T32 350Q32 459 64 540T158 667T305 712Q413 712 479 653T556 494H463Q453 553 413 593T305 633Q218 633 168 558T118 350Q118 217 168 142T305 67Q376 67 414 105T463 203H556Q540
103 477 46T305 -12ZM489 -259V-206H589Q617 -206 633 -194T649 -158Q649 -136 633 -125T589 -114H532V7H589V-63H598Q651 -63 684 -86T717 -159Q717 -207 683 -233T597 -259H489Z" />
<glyph unicode="&#xc8;" glyph-name="Egrave" d="M86 0V700H523V624H170V391H493V315H170V76H523V0H86ZM360 740L150 845V931L360 819V740Z" />
<glyph unicode="&#xc9;" glyph-name="Eacute" d="M86 0V700H523V624H170V391H493V315H170V76H523V0H86ZM250 740V819L460 931V845L250 740Z" />
<glyph unicode="&#xca;" glyph-name="Ecircumflex" d="M86 0V700H523V624H170V391H493V315H170V76H523V0H86ZM168 755V829L305 909L442 829V755L307 835H303L168 755Z" />
<glyph unicode="&#xcb;" glyph-name="Edieresis" d="M86 0V700H523V624H170V391H493V315H170V76H523V0H86ZM397 769Q373 769 357 786T340 826Q340 850 356 867T397 884Q421 884 437 867T453 826Q453 803 437 786T397 769ZM214 769Q190 769 174 786T157 826Q157
850 173 867T214 884Q238 884 254 867T271 826Q271 803 255 786T214 769Z" />
<glyph unicode="&#xcc;" glyph-name="Igrave" d="M99 0V73H258V627H99V700H501V627H342V73H501V0H99ZM355 740L145 845V931L355 819V740Z" />
<glyph unicode="&#xcd;" glyph-name="Iacute" d="M99 0V73H258V627H99V700H501V627H342V73H501V0H99ZM245 740V819L455 931V845L245 740Z" />
<glyph unicode="&#xce;" glyph-name="Icircumflex" d="M99 0V73H258V627H99V700H501V627H342V73H501V0H99ZM163 755V829L300 909L437 829V755L302 835H298L163 755Z" />
<glyph unicode="&#xcf;" glyph-name="Idieresis" d="M99 0V73H258V627H99V700H501V627H342V73H501V0H99ZM392 769Q368 769 352 786T335 826Q335 850 351 867T392 884Q416 884 432 867T448 826Q448 803 432 786T392 769ZM209 769Q185 769 169 786T152 826Q152 850
168 867T209 884Q233 884 249 867T266 826Q266 803 250 786T209 769Z" />
<glyph unicode="&#xd0;" glyph-name="Eth" d="M86 0V314H7V386H86V700H213Q385 700 467 606T550 350Q550 188 468 94T213 0H86ZM170 77H211Q303 77 358 111T439 206T464 350Q464 433 439 494T359 589T211 623H170V386H313V314H170V77Z" />
<glyph unicode="&#xd1;" glyph-name="Ntilde" d="M57 0V700H143L461 147V700H544V0H457L139 553V0H57ZM361 783Q333 783 314 793T278 814T242 825Q206 825 200 785H144Q147 833 172 859T238 885Q266 885 285 875T320 854T357 843Q395 843 401 883H456Q455 836
429 810T361 783Z" />
<glyph unicode="&#xd2;" glyph-name="Ograve" d="M300 -12Q215 -12 154 33T61 159T28 350Q28 459 60 540T154 667T300 712Q385 712 446 667T539 541T572 350Q572 241 540 160T446 33T300 -12ZM300 67Q383 67 434 141T486 350Q486 485 435 559T300 633Q216 633
165 559T114 350Q114 215 165 141T300 67ZM355 740L145 845V931L355 819V740Z" />
<glyph unicode="&#xd3;" glyph-name="Oacute" d="M300 -12Q215 -12 154 33T61 159T28 350Q28 459 60 540T154 667T300 712Q385 712 446 667T539 541T572 350Q572 241 540 160T446 33T300 -12ZM300 67Q383 67 434 141T486 350Q486 485 435 559T300 633Q216 633
165 559T114 350Q114 215 165 141T300 67ZM245 740V819L455 931V845L245 740Z" />
<glyph unicode="&#xd4;" glyph-name="Ocircumflex" d="M300 -12Q215 -12 154 33T61 159T28 350Q28 459 60 540T154 667T300 712Q385 712 446 667T539 541T572 350Q572 241 540 160T446 33T300 -12ZM300 67Q383 67 434 141T486 350Q486 485 435 559T300 633Q216
633 165 559T114 350Q114 215 165 141T300 67ZM163 755V829L300 909L437 829V755L302 835H298L163 755Z" />
<glyph unicode="&#xd5;" glyph-name="Otilde" d="M300 -12Q215 -12 154 33T61 159T28 350Q28 459 60 540T154 667T300 712Q385 712 446 667T539 541T572 350Q572 241 540 160T446 33T300 -12ZM300 67Q383 67 434 141T486 350Q486 485 435 559T300 633Q216 633
165 559T114 350Q114 215 165 141T300 67ZM361 783Q333 783 314 793T278 814T242 825Q206 825 200 785H144Q147 833 172 859T238 885Q266 885 285 875T320 854T357 843Q395 843 401 883H456Q455 836 429 810T361 783Z" />
<glyph unicode="&#xd6;" glyph-name="Odieresis" d="M300 -12Q215 -12 154 33T61 159T28 350Q28 459 60 540T154 667T300 712Q385 712 446 667T539 541T572 350Q572 241 540 160T446 33T300 -12ZM300 67Q383 67 434 141T486 350Q486 485 435 559T300 633Q216 633
165 559T114 350Q114 215 165 141T300 67ZM392 769Q368 769 352 786T335 826Q335 850 351 867T392 884Q416 884 432 867T448 826Q448 803 432 786T392 769ZM209 769Q185 769 169 786T152 826Q152 850 168 867T209 884Q233 884 249 867T266 826Q266 803 250 786T209
769Z" />
<glyph unicode="&#xd7;" glyph-name="multiply" d="M140 136L86 190L246 350L86 510L140 564L300 404L460 564L514 510L354 350L514 190L460 136L300 296L140 136Z" />
<glyph unicode="&#xd8;" glyph-name="Oslash" d="M27 -20L97 92Q28 189 28 350Q28 459 60 540T154 667T300 712Q388 712 453 661L489 720H574L504 607Q572 510 572 350Q572 241 540 160T446 33T300 -12Q212 -12 148 38L112 -20H27ZM114 350Q114 296 122 252T147
173L408 590Q363 633 300 633Q216 633 165 559T114 350ZM300 67Q383 67 434 141T486 350Q486 404 478 448T453 526L193 109Q237 67 300 67Z" />
<glyph unicode="&#xd9;" glyph-name="Ugrave" d="M299 -12Q229 -12 175 17T89 105T57 255V700H141V252Q141 162 185 113T301 64Q373 64 416 113T459 252V700H543V255Q543 165 511 106T424 17T299 -12ZM355 740L145 845V931L355 819V740Z" />
<glyph unicode="&#xda;" glyph-name="Uacute" d="M299 -12Q229 -12 175 17T89 105T57 255V700H141V252Q141 162 185 113T301 64Q373 64 416 113T459 252V700H543V255Q543 165 511 106T424 17T299 -12ZM245 740V819L455 931V845L245 740Z" />
<glyph unicode="&#xdb;" glyph-name="Ucircumflex" d="M299 -12Q229 -12 175 17T89 105T57 255V700H141V252Q141 162 185 113T301 64Q373 64 416 113T459 252V700H543V255Q543 165 511 106T424 17T299 -12ZM163 755V829L300 909L437 829V755L302 835H298L163 755Z" />
<glyph unicode="&#xdc;" glyph-name="Udieresis" d="M299 -12Q229 -12 175 17T89 105T57 255V700H141V252Q141 162 185 113T301 64Q373 64 416 113T459 252V700H543V255Q543 165 511 106T424 17T299 -12ZM392 769Q368 769 352 786T335 826Q335 850 351 867T392
884Q416 884 432 867T448 826Q448 803 432 786T392 769ZM209 769Q185 769 169 786T152 826Q152 850 168 867T209 884Q233 884 249 867T266 826Q266 803 250 786T209 769Z" />
<glyph unicode="&#xdd;" glyph-name="Yacute" d="M258 0V275L31 700H126L300 360L474 700H569L342 275V0H258ZM245 740V819L455 931V845L245 740Z" />
<glyph unicode="&#xde;" glyph-name="Thorn" d="M74 0V700H158V562H307Q387 562 438 533T513 456T537 350Q537 292 513 244T438 167T307 138H158V0H74ZM158 214H305Q379 214 415 252T451 350Q451 410 415 448T305 486H158V214Z" />
<glyph unicode="&#xdf;" glyph-name="germandbls" d="M389 -12Q303 -12 255 35T202 169H288Q291 121 317 92T390 63Q436 63 462 87T488 153Q488 194 466 217T393 258Q341 275 308 304T275 383Q275 411 286 429T313 460T346 486T374 513T385 551Q385 593 355 618T272
644Q209 644 179 607T149 504V0H65V509Q65 569 87 616T156 692T273 720Q368 720 418 674T468 558Q468 524 457 502T430 466T398 440T371 417T360 388Q360 365 378 350T450 317Q511 296 542 259T573 159Q573 111 551 72T488 11T389 -12Z" />
<glyph unicode="&#xe0;" glyph-name="agrave" d="M258 -12Q199 -12 160 9T102 64T83 140Q83 216 138 255T287 295H423V305Q423 435 304 435Q256 435 224 414T182 348H96Q101 398 129 434T203 489T304 508Q410 508 458 453T507 305V0H435L428 77H421Q399 41 363
15T258 -12ZM273 62Q321 62 354 85T405 146T423 229H294Q226 229 199 206T171 145Q171 106 197 84T273 62ZM615 536L405 641V727L615 615V536Z" />
<glyph unicode="&#xe1;" glyph-name="aacute" d="M258 -12Q199 -12 160 9T102 64T83 140Q83 216 138 255T287 295H423V305Q423 435 304 435Q256 435 224 414T182 348H96Q101 398 129 434T203 489T304 508Q410 508 458 453T507 305V0H435L428 77H421Q399 41 363
15T258 -12ZM273 62Q321 62 354 85T405 146T423 229H294Q226 229 199 206T171 145Q171 106 197 84T273 62ZM249 536V615L459 727V641L249 536Z" />
<glyph unicode="&#xe2;" glyph-name="acircumflex" d="M258 -12Q199 -12 160 9T102 64T83 140Q83 216 138 255T287 295H423V305Q423 435 304 435Q256 435 224 414T182 348H96Q101 398 129 434T203 489T304 508Q410 508 458 453T507 305V0H435L428 77H421Q399 41
363 15T258 -12ZM273 62Q321 62 354 85T405 146T423 229H294Q226 229 199 206T171 145Q171 106 197 84T273 62ZM167 551V625L304 705L441 625V551L306 631H302L167 551Z" />
<glyph unicode="&#xe3;" glyph-name="atilde" d="M258 -12Q199 -12 160 9T102 64T83 140Q83 216 138 255T287 295H423V305Q423 435 304 435Q256 435 224 414T182 348H96Q101 398 129 434T203 489T304 508Q410 508 458 453T507 305V0H435L428 77H421Q399 41 363
15T258 -12ZM273 62Q321 62 354 85T405 146T423 229H294Q226 229 199 206T171 145Q171 106 197 84T273 62ZM365 579Q337 579 318 589T282 610T246 621Q210 621 204 581H148Q151 629 176 655T242 681Q270 681 289 671T324 650T361 639Q399 639 405 679H460Q459 632
433 606T365 579Z" />
<glyph unicode="&#xe4;" glyph-name="adieresis" d="M258 -12Q199 -12 160 9T102 64T83 140Q83 216 138 255T287 295H423V305Q423 435 304 435Q256 435 224 414T182 348H96Q101 398 129 434T203 489T304 508Q410 508 458 453T507 305V0H435L428 77H421Q399 41
363 15T258 -12ZM273 62Q321 62 354 85T405 146T423 229H294Q226 229 199 206T171 145Q171 106 197 84T273 62ZM396 565Q372 565 356 582T339 622Q339 646 355 663T396 680Q420 680 436 663T452 622Q452 599 436 582T396 565ZM213 565Q189 565 173 582T156 622Q156
646 172 663T213 680Q237 680 253 663T270 622Q270 599 254 582T213 565Z" />
<glyph unicode="&#xe5;" glyph-name="aring" d="M258 -12Q199 -12 160 9T102 64T83 140Q83 216 138 255T287 295H423V305Q423 435 304 435Q256 435 224 414T182 348H96Q101 398 129 434T203 489T304 508Q410 508 458 453T507 305V0H435L428 77H421Q399 41 363
15T258 -12ZM273 62Q321 62 354 85T405 146T423 229H294Q226 229 199 206T171 145Q171 106 197 84T273 62ZM304 557Q261 557 230 584T199 660Q199 707 230 735T304 763Q347 763 378 735T409 660Q409 612 378 585T304 557ZM304 601Q328 601 344 616T361 660Q361
687 345 702T304 718Q280 718 264 703T247 660Q247 632 263 617T304 601Z" />
<glyph unicode="&#xe6;" glyph-name="ae" d="M156 -12Q112 -12 82 8T35 62T18 135Q18 215 69 257T203 299H258V345Q258 391 239 413T186 435Q156 435 137 416T116 358H34Q38 427 80 467T184 508Q231 508 261 489T307 437Q326 467 356 487T429 508Q509 508 548
449T588 279Q588 268 587 255T586 230H340Q342 147 366 106T426 65Q480 65 497 152H576Q568 83 531 36T422 -12Q376 -12 343 16T297 81H294Q277 36 239 12T156 -12ZM342 299H507Q504 363 485 398T427 433Q388 433 367 398T342 299ZM171 62Q207 62 232 91T258 175V230H210Q156
230 130 206T104 139Q104 103 121 83T171 62Z" />
<glyph unicode="&#xe7;" glyph-name="ccedilla" d="M308 -12Q241 -12 189 19T105 108T74 248Q74 329 105 387T189 477T308 508Q400 508 455 462T525 339H439Q427 380 393 404T307 429Q269 429 235 409T180 349T159 248Q159 187 180 147T235 86T307 66Q362 66 394
91T439 157H525Q506 78 451 33T308 -12ZM236 -259V-206H336Q364 -206 380 -194T396 -158Q396 -136 380 -125T336 -114H279V7H336V-63H345Q398 -63 431 -86T464 -159Q464 -207 430 -233T344 -259H236Z" />
<glyph unicode="&#xe8;" glyph-name="egrave" d="M305 -12Q235 -12 182 20T97 111T66 248Q66 326 96 384T181 475T307 508Q379 508 430 476T508 390T535 276Q535 265 535 254T534 229H149Q152 174 174 138T231 83T305 65Q360 65 391 88T438 152H521Q504 83 450
36T305 -12ZM305 433Q247 433 204 398T150 300H452Q448 362 408 397T305 433ZM617 536L407 641V727L617 615V536Z" />
<glyph unicode="&#xe9;" glyph-name="eacute" d="M305 -12Q235 -12 182 20T97 111T66 248Q66 326 96 384T181 475T307 508Q379 508 430 476T508 390T535 276Q535 265 535 254T534 229H149Q152 174 174 138T231 83T305 65Q360 65 391 88T438 152H521Q504 83 450
36T305 -12ZM305 433Q247 433 204 398T150 300H452Q448 362 408 397T305 433ZM251 536V615L461 727V641L251 536Z" />
<glyph unicode="&#xea;" glyph-name="ecircumflex" d="M305 -12Q235 -12 182 20T97 111T66 248Q66 326 96 384T181 475T307 508Q379 508 430 476T508 390T535 276Q535 265 535 254T534 229H149Q152 174 174 138T231 83T305 65Q360 65 391 88T438 152H521Q504 83
450 36T305 -12ZM305 433Q247 433 204 398T150 300H452Q448 362 408 397T305 433ZM169 551V625L306 705L443 625V551L308 631H304L169 551Z" />
<glyph unicode="&#xeb;" glyph-name="edieresis" d="M305 -12Q235 -12 182 20T97 111T66 248Q66 326 96 384T181 475T307 508Q379 508 430 476T508 390T535 276Q535 265 535 254T534 229H149Q152 174 174 138T231 83T305 65Q360 65 391 88T438 152H521Q504 83
450 36T305 -12ZM305 433Q247 433 204 398T150 300H452Q448 362 408 397T305 433ZM398 565Q374 565 358 582T341 622Q341 646 357 663T398 680Q422 680 438 663T454 622Q454 599 438 582T398 565ZM215 565Q191 565 175 582T158 622Q158 646 174 663T215 680Q239
680 255 663T272 622Q272 599 256 582T215 565Z" />
<glyph unicode="&#xec;" glyph-name="igrave" d="M100 0V72H258V399Q258 424 233 424H117V496H253Q342 496 342 407V72H500V0H100ZM611 536L401 641V727L611 615V536Z" />
<glyph unicode="&#xed;" glyph-name="iacute" d="M100 0V72H258V399Q258 424 233 424H117V496H253Q342 496 342 407V72H500V0H100ZM245 536V615L455 727V641L245 536Z" />
<glyph unicode="&#xee;" glyph-name="icircumflex" d="M100 0V72H258V399Q258 424 233 424H117V496H253Q342 496 342 407V72H500V0H100ZM163 551V625L300 705L437 625V551L302 631H298L163 551Z" />
<glyph unicode="&#xef;" glyph-name="idieresis" d="M100 0V72H258V399Q258 424 233 424H117V496H253Q342 496 342 407V72H500V0H100ZM392 565Q368 565 352 582T335 622Q335 646 351 663T392 680Q416 680 432 663T448 622Q448 599 432 582T392 565ZM209 565Q185
565 169 582T152 622Q152 646 168 663T209 680Q233 680 249 663T266 622Q266 599 250 582T209 565Z" />
<glyph unicode="&#xf0;" glyph-name="eth" d="M305 -12Q232 -12 177 23T90 116T59 247Q59 322 90 381T176 473T298 507Q346 507 388 489T461 425H466Q447 475 424 516T366 596L211 545V608L321 644Q284 679 230 720H335Q368 696 396 669L518 708V646L440 620Q497
550 526 463T556 271Q556 186 526 123T439 24T305 -12ZM308 66Q351 66 388 88T448 151T471 248Q471 304 448 344T388 407T308 429Q264 429 227 407T167 345T144 248Q144 192 167 151T227 88T308 66Z" />
<glyph unicode="&#xf1;" glyph-name="ntilde" d="M88 0V496H158L167 421H172Q192 457 235 482T334 508Q425 508 470 454T516 298V0H432V288Q432 354 403 391T313 429Q254 429 213 389T172 272V0H88ZM382 579Q354 579 335 589T299 610T263 621Q227 621 221 581H165Q168
629 193 655T259 681Q287 681 306 671T341 650T378 639Q416 639 422 679H477Q476 632 450 606T382 579Z" />
<glyph unicode="&#xf2;" glyph-name="ograve" d="M300 -12Q230 -12 176 20T91 110T60 248Q60 327 91 385T176 476T300 508Q370 508 424 476T509 386T540 248Q540 169 509 111T424 20T300 -12ZM300 68Q343 68 378 87T433 146T454 248Q454 310 434 350T378 409T300
428Q258 428 223 409T167 350T146 248Q146 155 191 112T300 68ZM611 536L401 641V727L611 615V536Z" />
<glyph unicode="&#xf3;" glyph-name="oacute" d="M300 -12Q230 -12 176 20T91 110T60 248Q60 327 91 385T176 476T300 508Q370 508 424 476T509 386T540 248Q540 169 509 111T424 20T300 -12ZM300 68Q343 68 378 87T433 146T454 248Q454 310 434 350T378 409T300
428Q258 428 223 409T167 350T146 248Q146 155 191 112T300 68ZM245 536V615L455 727V641L245 536Z" />
<glyph unicode="&#xf4;" glyph-name="ocircumflex" d="M300 -12Q230 -12 176 20T91 110T60 248Q60 327 91 385T176 476T300 508Q370 508 424 476T509 386T540 248Q540 169 509 111T424 20T300 -12ZM300 68Q343 68 378 87T433 146T454 248Q454 310 434 350T378
409T300 428Q258 428 223 409T167 350T146 248Q146 155 191 112T300 68ZM163 551V625L300 705L437 625V551L302 631H298L163 551Z" />
<glyph unicode="&#xf5;" glyph-name="otilde" d="M300 -12Q230 -12 176 20T91 110T60 248Q60 327 91 385T176 476T300 508Q370 508 424 476T509 386T540 248Q540 169 509 111T424 20T300 -12ZM300 68Q343 68 378 87T433 146T454 248Q454 310 434 350T378 409T300
428Q258 428 223 409T167 350T146 248Q146 155 191 112T300 68ZM361 579Q333 579 314 589T278 610T242 621Q206 621 200 581H144Q147 629 172 655T238 681Q266 681 285 671T320 650T357 639Q395 639 401 679H456Q455 632 429 606T361 579Z" />
<glyph unicode="&#xf6;" glyph-name="odieresis" d="M300 -12Q230 -12 176 20T91 110T60 248Q60 327 91 385T176 476T300 508Q370 508 424 476T509 386T540 248Q540 169 509 111T424 20T300 -12ZM300 68Q343 68 378 87T433 146T454 248Q454 310 434 350T378 409T300
428Q258 428 223 409T167 350T146 248Q146 155 191 112T300 68ZM392 565Q368 565 352 582T335 622Q335 646 351 663T392 680Q416 680 432 663T448 622Q448 599 432 582T392 565ZM209 565Q185 565 169 582T152 622Q152 646 168 663T209 680Q233 680 249 663T266
622Q266 599 250 582T209 565Z" />
<glyph unicode="&#xf7;" glyph-name="divide" d="M75 312V388H525V312H75ZM300 73Q269 73 247 94T225 146Q225 176 247 197T300 218Q331 218 353 197T375 146Q375 115 353 94T300 73ZM300 482Q269 482 247 503T225 555Q225 585 247 606T300 627Q331 627 353 606T375
555Q375 524 353 503T300 482Z" />
<glyph unicode="&#xf8;" glyph-name="oslash" d="M44 -20L117 71Q90 104 75 149T60 248Q60 327 91 385T176 476T300 508Q376 508 433 470L470 516H554L483 426Q510 392 525 347T540 248Q540 169 509 111T424 20T300 -12Q224 -12 166 26L130 -20H44ZM146 248Q146
214 152 187T171 139L383 406Q347 428 300 428Q258 428 223 409T167 350T146 248ZM300 68Q343 68 378 87T433 146T454 248Q454 282 448 309T429 358L217 90Q252 68 300 68Z" />
<glyph unicode="&#xf9;" glyph-name="ugrave" d="M265 -12Q175 -12 129 42T83 198V496H167V208Q167 142 196 105T286 67Q346 67 387 107T428 224V496H512V0H442L433 75H428Q408 39 365 14T265 -12ZM609 536L399 641V727L609 615V536Z" />
<glyph unicode="&#xfa;" glyph-name="uacute" d="M265 -12Q175 -12 129 42T83 198V496H167V208Q167 142 196 105T286 67Q346 67 387 107T428 224V496H512V0H442L433 75H428Q408 39 365 14T265 -12ZM243 536V615L453 727V641L243 536Z" />
<glyph unicode="&#xfb;" glyph-name="ucircumflex" d="M265 -12Q175 -12 129 42T83 198V496H167V208Q167 142 196 105T286 67Q346 67 387 107T428 224V496H512V0H442L433 75H428Q408 39 365 14T265 -12ZM417 551V625L554 705L691 625V551L556 631H552L417 551Z" />
<glyph unicode="&#xfc;" glyph-name="udieresis" d="M265 -12Q175 -12 129 42T83 198V496H167V208Q167 142 196 105T286 67Q346 67 387 107T428 224V496H512V0H442L433 75H428Q408 39 365 14T265 -12ZM646 565Q622 565 606 582T589 622Q589 646 605 663T646 680Q670
680 686 663T702 622Q702 599 686 582T646 565ZM463 565Q439 565 423 582T406 622Q406 646 422 663T463 680Q487 680 503 663T520 622Q520 599 504 582T463 565Z" />
<glyph unicode="&#xfd;" glyph-name="yacute" d="M149 -220L271 48H242L46 496H137L300 112L472 496H560L237 -220H149ZM247 536V615L457 727V641L247 536Z" />
<glyph unicode="&#xfe;" glyph-name="thorn" d="M78 -220V720H162V414Q181 454 223 481T322 508Q382 508 430 478T507 390T535 247Q535 164 507 106T429 18T315 -12Q258 -12 219 12T162 70V-220H78ZM305 68Q368 68 409 112T450 248Q450 339 409 383T305 428Q242
428 201 384T160 248Q160 157 201 113T305 68Z" />
<glyph unicode="&#xff;" glyph-name="ydieresis" d="M149 -220L271 48H242L46 496H137L300 112L472 496H560L237 -220H149ZM394 565Q370 565 354 582T337 622Q337 646 353 663T394 680Q418 680 434 663T450 622Q450 599 434 582T394 565ZM211 565Q187 565 171
582T154 622Q154 646 170 663T211 680Q235 680 251 663T268 622Q268 599 252 582T211 565Z" />
<glyph unicode="&#x2013;" glyph-name="endash" d="M95 314V386H505V314H95Z" />
<glyph unicode="&#x2014;" glyph-name="emdash" d="M0 314V386H600V314H0Z" />
<glyph unicode="&#x2018;" glyph-name="quoteleft" d="M202 420L301 700H377L310 420H202Z" />
<glyph unicode="&#x2019;" glyph-name="quoteright" d="M223 420L290 700H398L299 420H223Z" />
<glyph unicode="&#x201a;" glyph-name="quotesinglbase" d="M223 -138L290 142H398L299 -138H223Z" />
<glyph unicode="&#x201c;" glyph-name="quotedblleft" d="M347 420L446 700H522L455 420H347ZM311 420L410 700H486L419 420H311Z" />
<glyph unicode="&#x201d;" glyph-name="quotedblright" d="M365 420L432 700H540L441 420H365ZM329 420L396 700H504L405 420H329Z" />
<glyph unicode="&#x201e;" glyph-name="quotedblbase" d="M365 -138L432 142H540L441 -138H365ZM329 -138L396 142H504L405 -138H329Z" />
<glyph unicode="&#x2022;" glyph-name="bullet" d="M300 226Q266 226 238 243T193 288T176 350Q176 384 193 412T238 457T300 474Q334 474 362 457T407 412T424 350Q424 316 407 288T362 243T300 226Z" />
<glyph unicode="&#x2039;" glyph-name="guilsinglleft" d="M316 98L199 295L316 492H404L292 297V293L404 98H316Z" />
<glyph unicode="&#x203a;" glyph-name="guilsinglright" d="M196 98L308 293V297L196 492H284L401 295L284 98H196Z" />
</font>
</defs>
</svg>
